Uptobox | 1 Link Discovery - The Amazon River of the Sun BluRay 720p x264 AC3 - Khám Phá Dòng Sông Amazon

Thảo luận trong "Thể loại khác"

  1. Yuki Nakata

    Yuki Nakata

    Số bài viết: 379
    Đã được thích:9
    Điểm thành tích: 16
    Discovery.HD-The.Amazon.River.of.the.Sun.Blu-ray.720p
    Khám Phá Sông Amazon

    [​IMG]
    :noidung:

    :info:
    Mã:
    Info:
    Complete name                    : Discovery - The Amazon River of the Sun -BluRay 720p x264 AC3.mkv
    Format                          : Matroska
    File size                        : 2.15 GiB
    Duration                        : 52mn 9s
    Overall bit rate                : 5 893 Kbps
    Encoded date                    : UTC 2010-08-10 07:50:12
    Writing application              : mkvmerge v4.0.0 ('The Stars were mine') built on Jun  6 2010 16:18:42
    Writing library                  : libebml v1.0.0 + libmatroska v1.0.0
    
    Video
    ID                              : 1
    Format                          : AVC
    Format/Info                      : Advanced Video Codec
    Format profile                  : [email protected]
    Format settings, CABAC          : Yes
    Format settings, ReFrames        : 8 frames
    Muxing mode                      : Container [email protected]
    Codec ID                        : V_MPEG4/ISO/AVC
    Duration                        : 52mn 5s
    Bit rate                        : 5 328 Kbps
    Nominal bit rate                : 5 445 Kbps
    Width                            : 1 280 pixels
    Height                          : 720 pixels
    Display aspect ratio            : 16/9
    Frame rate                      : 29.970 fps
    Resolution                      : 24 bits
    Colorimetry                      : 4:2:0
    Scan type                        : Progressive
    Bits/(Pixel*Frame)              : 0.193
    Stream size                      : 1.94 GiB (90%)
    Title                            : www.MySiLU.com
    Writing library                  : x264 core 67 r1165M 6841c5e
    Encoding settings                : cabac=1 / ref=8 / deblock=1:-3:-3 / analyse=0x3:0x113 / me=umh / subme=8 / psy_rd=1.3:0.3 / mixed_ref=1 / me_range=16 / chroma_me=1 / trellis=2 / 8x8dct=1 / cqm=0 / deadzone=21,11 / chroma_qp_offset=-4 / threads=6 / nr=0 / decimate=0 / mbaff=0 / bframes=3 / b_pyramid=0 / b_adapt=2 / b_bias=0 / direct=1 / wpredb=1 / keyint=250 / keyint_min=25 / scenecut=40 / rc=2pass / bitrate=5445 / ratetol=1.0 / qcomp=0.60 / qpmin=10 / qpmax=51 / qpstep=4 / cplxblur=20.0 / qblur=0.5 / vbv_maxrate=50000 / vbv_bufsize=50000 / ip_ratio=1.40 / pb_ratio=1.30 / aq=1:1.00
    
    Audio
    ID                              : 2
    Format                          : AC-3
    Format/Info                      : Audio Coding 3
    Codec ID                        : A_AC3
    Duration                        : 52mn 9s
    Bit rate mode                    : Constant
    Bit rate                        : 448 Kbps
    Channel(s)                      : 6 channels
    Channel positions                : Front: L C R, Surround: L R, LFE
    Sampling rate                    : 48.0 KHz
    Stream size                      : 167 MiB (8%)
    Title                            : DD51 448 Kbps
    
    Text
    ID                              : 3
    Format                          : UTF-8
    Codec ID                        : S_TEXT/UTF8
    Codec ID/Info                    : UTF-8 Plain Text
    :trailer:

    Mã bbcode forum :

    :hinhminhhoa:
    [​IMG] [​IMG] [​IMG] [​IMG] [​IMG]
    :uptobox:
    Nội dung đã được ẩn:

    Bấm like để thấy được nội dung ẩn !

    :sub:
    Nội dung đã được ẩn:

    Bấm like để thấy được nội dung ẩn !

    Last edited by a moderator: 21/12/14
    tonydavidson thích bài này.

Chia sẻ trang này