Mediafire [MV] M2M - Pretty boy [HD 720p]

Thảo luận trong "USUK Video"

  1. Ocean_DTT

    Ocean_DTT

    Số bài viết: 391
    Đã được thích:52
    Điểm thành tích: 48
    [​IMG]
    [​IMG]
    Mã:
    General
    
    Format                           : Matroska
    File size                        : 99.0 MiB
    Duration                         : 4mn 20s
    Overall bit rate                 : 3 193 Kbps
    Encoded date                     : UTC 2010-12-04 03:40:14
    Writing application              : mkvmerge v4.3.0 ('Escape from the Island') built on Sep  5 2010 10:30:51
    Writing library                  : libebml v1.0.0 + libmatroska v1.0.0
    
    Video
     ID                                : 1
    Format                            : AVC
    Format/Info                       : Advanced Video Codec
    Format profile                    : [email protected]
    Format settings, CABAC            : Yes
    Format settings, ReFrames         : 4 frames
    Muxing mode                       : Header stripping
    Codec ID                          : V_MPEG4/ISO/AVC
    Duration                          : 4mn 20s
    Bit rate                          : 2 999 Kbps
    Width                             : 1 280 pixels
    Height                           : 720 pixels
    Display aspect ratio              : 16:9
    Frame rate                        : 29.970 fps
    Color space                       : YUV
    Chroma subsampling                : 4:2:0
    Bit depth                         : 8 bits
    Scan type                        : Progressive
    Bits/(Pixel*Frame)                : 0.109
    Stream size                       : 91.1 MiB (92%)
    Writing library                   : x264 core 98 r1649 c54c47d
    Encoding settings                 : cabac=1 / ref=3 / deblock=1:0:0 / analyse=0x3:0x113 / me=hex / subme=7 / psy=1 / psy_rd=1.00:0.00 / mixed_ref=1 / me_range=16 / chroma_me=1 / trellis=1 / 8x8dct=1 / cqm=0 / deadzone=21,11 / fast_pskip=1 / chroma_qp_offset=-2 / threads=3 / sliced_threads=0 / nr=0 / decimate=1 / interlaced=0 / constrained_intra=0 / bframes=3 / b_pyramid=2 / b_adapt=1 / b_bias=0 / direct=1 / weightb=1 / weightp=2 / keyint=250 / keyint_min=25 / scenecut=40 / intra_refresh=0 / rc_lookahead=40 / rc=2pass / mbtree=1 / bitrate=2999 / ratetol=1.0 / qcomp=0.60 / qpmin=10 / qpmax=51 / qpstep=4 / cplxblur=20.0 / qblur=0.5 / ip_ratio=1.40 / aq=1:1.00
    
    Audio
    ID                               : 2
    Format                            : AC-3
    Format/Info                       : Audio Coding 3
    Mode extension                    : CM (complete main)
    Muxing mode                       : Header stripping
    Codec ID                         : A_AC3
    Duration                         : 4mn 20s
    Bit rate mode                    : Constant
    Bit rate                         : 192 Kbps
    Channel(s)                       : 2 channels
    Channel positions                : Front: L R
    Sampling rate                    : 48.0 KHz
    Bit depth                        : 16 bits
    Video delay                      : 19ms
    Stream size                      : 5.95 MiB (6%)
    [​IMG]
    :
  2. mirumo

    mirumo

    Số bài viết: 1
    Đã được thích:0
    Điểm thành tích: 1
    Ðề: [MV] M2M - Pretty boy [HD 720p]

    bạn ơi pass là gì ? :(
  3. Ocean_DTT

    Ocean_DTT

    Số bài viết: 391
    Đã được thích:52
    Điểm thành tích: 48
    Ðề: [MV] M2M - Pretty boy [HD 720p]

    Pass: namkent
    Sorry mọi người nhé :D
  4. Kuteteen

    Kuteteen

    Số bài viết: 2,794
    Đã được thích:919
    Điểm thành tích: 48
    Ðề: [MV] M2M - Pretty boy [HD 720p]

    pass: namkent :lacludau:

Chia sẻ trang này