4share.vn Shaolin - Tân Thiếu Lâm Tự (2011) DVDSCR XviD-JAV2ME

Thảo luận trong "Hành động, Phiêu lưu, Kinh dị"

  1. IT-Man

    IT-Man

    Số bài viết: 11
    Đã được thích:1
    Điểm thành tích: 16
    Shaolin - Tân Thiếu Lâm Tự (2011)



    Tân Thiếu Lâm Tự được coi là phiên bản mới của Thiếu Lâm Tự - bộ phim nổi tiếng hồi năm 1982 với diễn xuất của Lý Liên Kiệt.

    Tân Thiếu Lâm Tự xoay quanh nhân vật tướng quân do Lưu Đức Hoa thủ vai. Nhân vật của Lưu Đức Hoa bị người phụ tá (Tạ Đình Phong) hãm hại, còn vợ anh (Phạm Băng Băng) thì bỏ đi, mang theo cô con gái nhỏ của hai người. Quá tuyệt vọng, nhân vật của Lưu Đức Hoa bỏ tới chùa Thiếu Lâm sinh sống và từ đó học đạo Phật do một nhà sư phụ trách việc bếp núc trong chùa (Thành Long). Viên đại tướng sau đó cũng đi tu và dẫn dắt các tăng nhân trong Thiếu Lâm Tự chống lại tay phụ tá ngày nào để bảo vệ ngôi chùa cùng các cư dân sống trong vùng.

    Tân thiếu lâm tự là một trong những “bom tấn” trong năm 2011 của điện ảnh Trung Quốc với sự tham gia của "rừng" sao như: Lưu Đức Hoa, Thành Long, Tạ Đình Phong, Ngô Kinh, Phạm Băng Băng.
    Trích:
    Format : AVI
    Format/Info : Audio Video Interleave
    File size : 1.38 GiB
    Duration : 1h 57mn
    Overall bit rate : 1 677 Kbps
    Writing library : VirtualDub build 29393/release

    Video
    ID : 0
    Format : MPEG-4 Visual
    Format profile : Advanced [email protected]
    Format settings, BVOP : Yes
    Format settings, QPel : No
    Format settings, GMC : No warppoints
    Format settings, Matrix : Default (H.263)
    Muxing mode : Packed bitstream
    Codec ID : XVID
    Codec ID/Hint : XviD
    Duration : 1h 57mn
    Bit rate : 1 474 Kbps
    Width : 720 pixels
    Height : 316 pixels
    Display aspect ratio : 2.25:1
    Frame rate : 29.970 fps
    Color space : YUV
    Chroma subsampling : 4:2:0
    Bit depth : 8 bits
    Scan type : Progressive
    Compression mode : Lossy
    Bits/(Pixel*Frame) : 0.216
    Stream size : 1.21 GiB (88%)
    Writing library : XviD 1.1.0 (UTC 2005-11-22)

    Audio
    ID : 1
    Format : AC-3
    Format/Info : Audio Coding 3
    Mode extension : CM (complete main)
    Codec ID : 2000
    Duration : 1h 57mn
    Bit rate mode : Constant
    Bit rate : 192 Kbps
    Channel(s) : 2 channels
    Channel positions : Front: L R
    Sampling rate : 48.0 KHz
    Bit depth : 16 bits
    Compression mode : Lossy
    Stream size : 161 MiB (11%)
    Alignment : Aligned on interleaves
    Interleave, duration : 33 ms (1.00 video frame)
    Interleave, preload duration : 512 ms

    [​IMG]
    [​IMG]
    [​IMG]

    Download

    :
  2. Kuteteen

    Kuteteen

    Số bài viết: 2,794
    Đã được thích:919
    Điểm thành tích: 48
    :lacludau: sub đâu òi..!
  3. IT-Man

    IT-Man

    Số bài viết: 11
    Đã được thích:1
    Điểm thành tích: 16
    Sub có luôn ở trong link rồi mà
  4. timquennet

    timquennet

    Số bài viết: 206
    Đã được thích:14
    Điểm thành tích: 28
    - A Lich Leech hay UP vậy a? Sao chia file có 200 mb thế :tinhsao:

Chia sẻ trang này